Skip to main content

Umphreys McGee Live at Bank of America Pavilion on 2013-08-31




*** This is a 24 bit recording, not intended for CD Burning ***

Umphrey's McGee
2012-08-31
Bank of America Pavilion
Boston, MA

DPA 4011 > V3 Digital > R44 (24/96)
SDHC Card > Sound Forge Pro 10.0 (Normalize, fades > CD Wav (tracking) > TLH > Flac (level 8)
ORTF/LOC (Sec. 2, Row V, Seat 25)/FOB/approx. 7' high
Tags added in Foobar2000

Taped and Transferred by Brian V.

01. Plunger >
02. Walletsworth
03. Crucial Taunt
04. The Pequod >
05. The Linear >
06. Glory >
07. Deeper
08. Divisions >
09. Soul Food II >
10. Divisions
11. No Diable
12. White Pickle >
13. Regulate% w Dave Phipps and Jeffree Lerner
14. Mulche's Odyssey


Collection UmphreysMcGee
Band/Artist Umphreys McGee
Venue Bank of America Pavilion
Location Boston, MA

Source DPA 4011 > V3 Digital > R44 (24/96)
Lineage SDHC Card > Sound Forge Pro 10.0 (Normalize, fades > CD Wav (tracking) > TLH > Flac (level 8)
Taped by Brian V.
Transferred by Brian V.

Notes

% with Dave Phipps and Jeffree Lerner from STS9

***Support Bands That Allow Taping/Trading***

shntool output
length expanded size cdr WAVE problems fmt ratio filename
100:16.469 3465486456 B cxx -e ----- wav 1.0000 um2013-08-31s1t.wav
15:36.067 539174444 B cxx -- ---xx flac 0.5476 um2013-08-31s1t01.flac
6:35.027 227535404 B cxx -- ---xx flac 0.5438 um2013-08-31s1t02.flac
5:08.253 177553964 B cxx -- ---xx flac 0.5654 um2013-08-31s1t03.flac
3:47.627 131113004 B cxx -- ---xx flac 0.5085 um2013-08-31s1t04.flac
9:42.187 335339564 B cxx -- ---xx flac 0.5533 um2013-08-31s1t05.flac
4:23.280 151649324 B cxx -- ---xx flac 0.5499 um2013-08-31s1t06.flac
8:38.053 298398764 B cxx -- ---xx flac 0.5548 um2013-08-31s1t07.flac
9:37.053 332382764 B cxx -- ---xx flac 0.5540 um2013-08-31s1t08.flac
3:07.880 108218924 B cxx -- ---xx flac 0.5708 um2013-08-31s1t09.flac
6:55.880 239546924 B cxx -- ---xx flac 0.5464 um2013-08-31s1t10.flac
5:07.467 177100844 B cxx -- ---xx flac 0.5578 um2013-08-31s1t11.flac
4:45.400 164390444 B cxx -- ---xx flac 0.5493 um2013-08-31s1t12.flac
5:50.147 201684524 B cxx -- ---xx flac 0.5602 um2013-08-31s1t13.flac
11:02.149 381398060 B cxx -- ---xx flac 0.5712 um2013-08-31s1t14.flac
200:32.939 6930973408 B 0.7766 (15 files)

Reviews

There are no reviews yet. Be the first one to write a review.
PEOPLE ALSO FOUND
Umphreys McGee
by Umphreys McGee
167
0
0
Source: DPA 4011 > V3 Digital > R44 (24/96)
Umphreys McGee
by Umphreys McGee
114
0
0
Source: DPA 4011 > V3 Digital > R44 (24/96)
Umphreys McGee
by Umphreys McGee
76
0
0
Source: DPA 4011 > V3 Digital > R44 (24/96)
Umphreys McGee
by Umphreys McGee
195
0
0
Source: DPA 4011 > V3 Digital > R44 (24/96)
Umphreys McGee
by Umphreys McGee
1,197
0
0
Source: DPA 4011 > V3 Digital > R44 (24/96)
Umphreys McGee
by Umphreys McGee
253
0
0
Source: DPA 4011 > V3 Digital > R44 (24/96)
Umphreys McGee
by Umphreys McGee
1,474
0
1
( 1 reviews )
Source: DPA 4011 > V3 Digital > R44 (24/96)
Umphreys McGee
by Umphreys McGee
337
0
0
Source: DPA 4011 > V3 Digital > R44 (24/96)
Umphreys McGee
by Umphreys McGee
84
0
0
Source: DPA 4011 > V3 Digital > R44 (24/96)
Umphreys McGee
by Umphreys McGee
117
0
0
Source: DPA 4011 > V3 > R44